#TITLE:Ichirin no Hana ~Huge Hollow Mix~;
#SUBTITLE:- Bleach 3rd Opening;
#ARTIST:HIGH AND MIGHTY COLOR;
#TITLETRANSLIT:;
#SUBTITLETRANSLIT:;
#ARTISTTRANSLIT:;
#CREDIT:True Ancestor (^_^);
#BANNER:bleachbanner.jpg;
#BACKGROUND:bleach1.jpg;
#LYRICSPATH:;
#CDTITLE:trueancestor.png;
#MUSIC:Ichirin_no_Hana_Huge_Hollow.mp3;
#OFFSET:-1.000;
#SAMPLESTART:29.290;
#SAMPLELENGTH:12.000;
#SELECTABLE:YES;
#BPMS:0.000=100.000,95.000=200.000,157.000=50.000,157.500=200.000,253.500=100.000,401.500=200.000,431.500=50.000,431.875=200.000,460.500=50.000,461.500=200.000,491.500=50.000,492.000=200.000,556.000=50.000;
#STOPS:94.750=0.120
;
#BGCHANGES:;
// cache tags:
#FIRSTBEAT:13.000;
#LASTBEAT:581.625;
#SONGFILENAME:Songs/nhac/[TrueAncestor] Ichirin no Hana ~Huge Hollow Mix~ (Long ver.) -Bleach 3rd OP/Ichirin no Hana ~Huge Hollow Mix~.sm;
#HASMUSIC:1;
#HASBANNER:1;
#MUSICLENGTH:281.317;
// end cache tags

//---------------dance-single - ----------------
#NOTES:
     dance-single:
     :
     Challenge:
     16:
     1.000,1.000,1.000,0.242,1.000,1899.000,345.000,68.000,0.000,0.000:


0000
0000
0000
0000
,
0000
0000
0000
0000
,
0000
0000
0000
0000
,
0000
0000
0000
0000
0000
0000
0000
0000
0002
0000
0000
0000
1003
0100
0020
0000
0000
0000
0000
0000
0000
0000
0000
0030
2000
0000
0001
0000
0000
0000
0000
0000
,
0001
0000
0000
0001
0000
0000
0001
0000
0000
3001
0000
0000
0200
0010
0000
0000
,
0010
0000
0000
0010
0000
0000
0010
0000
0000
0010
0000
0300
0010
0200
0000
0000
,
0000
0000
0000
0000
0000
0002
0000
0000
0300
2000
0000
0000
0003
3020
0000
0000
,
0000
0000
0000
0000
0000
0200
0000
0000
0030
0020
0000
0000
0330
0001
1000
0010
,
1000
0200
0301
0000
0010
0100
1000
0100
1000
0100
1000
0001
0100
0010
0100
1000
,
0001
0200
0310
0000
0100
0010
0100
1000
0001
1000
0100
1000
0001
0100
0000
0100
,
0000
0100
2000
0000
0020
3000
0000
0100
0000
1030
0020
0000
0002
0000
0000
0033
,
0000
0000
0000
2000
0000
0002
0000
0003
3020
0000
0000
0100
0000
0100
0000
1000
,
0030
1000
0200
0000
0010
0000
0000
0010
0300
2000
0010
0000
0200
0000
0000
0000
,
0000
0000
0000
3300
0000
0001
0010
0000
0100
0000
2000
0000
0002
0000
0000
0000
,
0000
0003
0000
0010
0000
3020
0000
0000
0230
0000
0000
0010
0000
0020
0000
0000
,
0000
0330
0000
1000
0001
1000
0002
0000
0200
0300
0023
0030
0001
0001
0001
0001
,
0002
0000
1000
1000
2000
0003
0100
0100
3200
0010
0010
0010
0010
0320
0100
0100
,
0230
0000
0000
0000
1000
0000
1000
0000
2300
0000
0000
0000
0100
0000
0100
0000
3200
0000
0010
0000
0010
0000
0010
0000
0310
0000
0001
0000
1000
0100
1000
0001
,
0010
0000
0100
0001
0010
0000
0100
1000
0001
0100
0010
0000
0100
1000
0001
0100
0010
0000
0100
0001
1000
0000
0010
1000
0100
0010
0001
0000
0010
0100
0010
0100
,
0010
0000
1000
0001
0100
0000
0010
1000
0001
0010
0100
0000
0010
0001
0100
1000
0001
0000
0100
0001
1000
0000
0100
0000
0001
0000
0101
0000
0100
0000
1010
0000
,
0010
0101
1000
1010
0100
0101
0100
1010
0010
0101
1000
0110
1000
0011
0100
1010
,
0010
0101
0100
0110
1000
0101
1000
0110
0001
1100
1000
0011
1000
0101
0100
1010
,
1000
0011
0100
1100
0010
1001
0010
1001
0100
1010
0010
0110
0010
0101
0100
1001
,
0100
0000
0110
0000
0001
0000
0110
0000
0010
0000
1001
0000
0001
0100
0010
1000
0100
0000
0010
0000
1000
0000
0100
0000
0010
0000
0000
0000
1000
0000
0100
0000
,
1000
0001
0100
0000
0010
0100
0001
0000
1000
0100
1000
0001
0100
0000
0010
0100
,
0001
0100
0010
0000
1000
0010
1000
0000
0001
1000
0001
0010
0100
0000
0010
1000
,
0100
1000
0001
0000
0100
0010
0100
0000
0010
1000
0001
0100
0001
0000
0100
1000
,
0100
1000
0001
0000
0100
0010
0100
0000
1001
0000
1100
0000
0011
0000
1000
0001
,
0100
0010
0100
0000
0010
0001
0010
0000
0100
1000
0100
1000
0100
0000
0010
0100
,
0001
0100
0010
0000
0100
0001
0100
0000
1000
0010
0100
0010
1000
0000
0001
0100
,
0010
0100
1000
0000
1000
0100
0010
0000
1000
0100
0010
0100
0001
0000
0010
0100
,
1000
0001
0100
0000
0010
0100
0001
0000
1100
0000
0101
0000
1000
0000
0001
1000
,
0001
0100
0010
0000
0010
1000
0001
0000
1000
0010
0100
0001
0100
0000
0010
0100
,
1000
0100
1000
0000
0010
0001
0100
0000
0010
1000
0100
0001
0010
0000
0010
0100
,
1000
0001
0100
0000
0010
0100
1000
0000
0100
1000
0001
0100
0010
0000
0100
0001
,
0100
0010
0100
0000
1000
0100
1000
0000
0101
0000
0110
0000
1100
0000
0001
0100
,
1000
0100
0001
0000
0100
1000
0001
0000
1000
0010
0001
0010
1000
0000
1000
0010
,
0001
1000
0001
0000
0100
1000
0001
0000
0100
0001
0100
0001
0010
0000
0100
1000
,
0001
0100
0010
0000
0100
1000
0001
0000
0100
0010
0100
0010
0100
0000
1000
0100
,
1000
0000
0001
0000
0100
0000
0000
0000
0011
1100
0110
1001
0010
0000
0000
0000
0100
0000
0000
0000
1001
0000
0000
0000
0100
0000
0000
0000
0010
0000
0000
0000
,
0011
0100
1001
1000
0001
0101
0010
1100
,
0011
0000
1100
0000
0110
0000
1000
0001
1000
0000
0101
0000
0100
0000
0010
0000
,
1100
0100
0011
1000
0110
0011
0100
1100
,
0110
0101
1010
1100
0010
0101
0100
1000
,
0011
0010
1100
0010
0101
1010
0100
0011
,
0110
0000
1100
0000
0110
0000
0100
0010
0100
0000
0101
0000
1000
0000
0100
0000
,
0011
0010
0101
0010
1100
0101
1000
0110
,
1100
0110
0101
0110
0100
1001
0100
0010
,
1010
0101
0101
0110
0110
1010
1010
0101
,
0101
0110
0110
1000
0001
1001
0100
1000
,
0011
0000
1100
0000
0110
0000
1001
0000
0011
0000
1100
0000
1010
0000
1000
0100
,
0010
0001
1001
0000
0100
0000
0010
0000
0100
0000
1001
0000
1000
0000
0001
0000
,
1000
1001
0010
0001
0010
1001
1000
0100
,
1000
0011
1100
0101
1010
0101
0010
1000
,
0010
0011
0100
0001
0100
1010
0010
0001
,
0010
0000
1010
0000
0100
0000
0100
0000
0001
0100
0010
0100
1000
0000
1000
0010
,
0100
0000
0010
1000
0001
0100
1000
0000
0001
0100
1000
0001
1000
0000
0010
0001
,
0100
0000
0100
1000
0010
0100
0010
0000
0001
0100
0010
0100
1000
0000
1000
0010
,
0100
0000
0010
1000
0001
0100
1000
0000
0001
0100
1000
0001
1000
0000
0010
0001
,
0100
0000
0110
0000
0011
0000
1100
0000
0100
0010
0100
0001
1000
0000
0100
0010
,
0100
0000
1000
0010
1000
0001
0100
0000
0010
0001
0010
0001
0100
0000
1000
0001
,
1000
0000
0100
0001
0100
0010
1000
0000
0100
0001
1000
0001
0100
0000
0010
1000
,
0001
0000
0001
0010
0100
0010
1000
0000
0001
1000
0001
1000
0001
0000
0100
0010
,
0100
0000
1000
0100
0001
1000
0001
1000
0101
1000
0000
0010
1100
0010
0000
0001
,
0110
0001
0000
1000
0110
1000
0000
0001
1100
0001
0000
0010
0101
0010
0000
1000
,
0110
1000
0000
0100
1010
0100
0000
0100
1010
0100
0000
0010
1001
0010
0000
1000
,
0101
1000
0000
0100
0011
0100
0000
0010
0101
0010
0000
0100
1010
0100
0000
0010
,
0101
0010
0000
0100
1001
0100
0000
0010
0110
0010
1100
1100
0100
1000
0101
0010
,
0100
1010
1010
0100
0010
0100
0011
0100
0001
0110
0110
0010
0100
0001
0101
0010
,
0100
0101
0101
0010
0100
1000
0110
0010
0100
1001
1001
0010
0100
1000
0110
1000
,
0100
0000
0000
0000
0110
0000
0000
0000
0110
0000
0000
0000
1000
0000
0000
0000
0100
0000
0000
0000
0001
0000
0000
0000
0110
0000
0000
0000
1000
0000
0000
0000
0100
0000
0000
0000
0101
0000
0000
0000
0101
0000
0000
0000
1000
0000
0000
0000
0100
0000
0000
0000
0010
0000
0000
0000
0001
1000
0001
1000
0001
0000
0000
0000
,
0010
0100
0010
0100
0010
0000
0000
0000
0001
0000
0000
0000
0010
0000
0000
0000
0100
0000
0000
0000
0001
0000
0000
0000
0100
0000
0000
0000
0010
0000
0000
0000
0100
0000
0000
0000
1000
0000
0000
0000
0001
0000
0010
0000
0100
0000
0000
0000
0000
0000
0000
0000
1000
0000
0001
0000
1000
0000
0000
0000
0000
0000
0000
0000
,
0010
0001
0010
0000
0000
0000
1000
0010
0100
0000
0001
0000
0010
0000
0000
0000
0100
0000
0000
0000
1000
0010
0001
0000
0000
0000
0100
0010
0001
0000
1000
0000
,
0001
0000
0100
0000
0000
0000
0010
0000
1000
0000
0001
0010
0100
0000
0001
0000
0010
0000
0000
0000
1000
0100
0001
0000
0000
0000
1000
0100
0001
0000
0000
0000
,
0001
0000
0010
0000
1000
0000
0000
0000
0000
0000
0000
0000
1000
0000
0010
0000
0001
0000
0000
0000
1000
0000
0000
0000
0100
0000
0000
0000
1000
0000
0000
0000
0010
0000
0000
0000
0100
0010
1000
0001
1000
0000
0000
0000
0100
0000
0000
0000
0010
0000
0000
0000
0100
0000
0000
0000
1000
0010
1000
0010
0000
1000
0000
0000
,
0001
0100
0001
0100
0001
0000
0000
0000
0010
0000
0000
0000
0100
0000
0000
0000
1000
0000
0000
0000
0001
0000
0000
0000
0100
0000
0000
0000
0000
0000
0000
0000
0010
0000
1000
0000
0100
0000
0000
0000
0001
0000
0010
0000
0001
0000
0000
0000
0000
0000
0000
0000
1000
0000
0100
0000
1000
0000
0000
0000
0000
0000
0000
0000
,
0010
0000
0100
0000
0000
0000
0001
1000
0001
0000
1000
0000
0001
0000
0100
0000
0010
0000
0000
0000
0100
0010
1000
0000
0000
0000
0001
0100
1000
0000
0100
0000
,
0010
0000
1000
0000
0010
0000
0100
0001
1000
0000
0100
0000
1000
0000
0001
0000
0010
0000
0000
0000
0100
0010
1000
0000
0000
0000
0100
0010
0001
0000
0000
0000
,
0100
0000
0000
0000
0000
0000
1000
0000
0000
0000
0000
0000
0001
0000
0000
0000
0000
0000
0000
0000
0000
0000
0000
0000
0000
0000
0000
0000
0000
0000
0000
0000
0000
0000
0000
0000
0010
0000
0000
0000
0000
0000
0100
0000
0000
0000
0000
0000
0001
0000
0000
0000
0000
0000
0000
0000
0000
0000
0000
0000
1000
0000
0000
0000
0000
0000
0000
0000
0000
0000
0000
0000
0100
0000
0000
0000
0000
0000
0010
0000
0000
0000
0000
0000
1000
0000
0000
0000
0000
0000
0000
0000
0000
0000
0000
0000
0001
0000
0000
0000
0000
0000
0000
0000
0000
0000
0000
0000
0100
0000
0000
0000
0000
0000
0000
0000
0000
0000
0000
0000
0010
0000
0000
0000
0000
0000
1000
0000
0000
0000
0000
0000
0001
0000
0000
0000
0000
0000
0000
0000
0000
0000
0000
0000
1000
0000
0000
0000
0000
0000
0000
0000
0000
0000
0000
0000
0100
0000
0000
0000
0000
0000
0000
0000
0000
0000
0000
0000
0001
0000
0000
0000
0010
0000
0000
0000
0001
0000
0000
0000
0010
0000
0000
0000
0001
0000
0000
0000
0010
0000
0000
0000
,
0001
1000
0001
1000
0001
1000
0001
1000
0001
1000
0100
1000
0100
1000
0100
1000
0100
1000
0200
0000
0000
0000
0000
0000
0001
0000
0000
0000
0000
0000
0010
0000
0000
0000
0000
0000
0001
0000
0000
0000
0000
0000
0010
0000
0000
0000
0000
0000
,
0001
0000
0000
0000
0310
0000
0000
0000
0100
0000
0000
0000
0020
0000
0000
0000
0000
0000
2000
0000
0000
0000
0030
0000
0002
0000
0000
0000
0000
3000
0000
0000
,
0020
0000
0003
0000
2000
0030
0200
0000
0000
0000
0000
3300
0010
0000
0100
1000
0001
0100
0010
0000
0100
1000
0001
0000
0100
0010
0100
1000
0001
0000
0100
0010
,
0100
1000
0001
0000
0001
1000
0100
0000
0001
1000
0100
0001
0010
0000
0100
1000
0001
0100
0010
0000
0100
0001
0100
0000
1000
0100
0010
0001
0100
0000
0100
1000
,
0001
0100
0010
0000
0100
1000
0001
0000
0200
0000
0000
0000
0001
0000
0000
0000
2300
0000
0000
0000
0010
0000
0100
0000
0000
3000
0020
0000
0000
0000
0000
0000
,
0002
0030
0000
0000
0010
0000
0203
0000
0000
0000
2000
0000
0000
0000
0000
0000
0000
0000
0000
0000
3000
0000
0000
0000
0320
0000
0000
0000
2000
0000
0000
0000
,
0030
0002
0000
0003
3100
0000
0001
0001
0001
0002
0000
1000
1000
2003
0000
0010
,
0010
3020
0100
0100
0100
0130
0200
0001
0001
0002
0300
0010
0010
0023
0000
0100
,
0100
0230
1000
1000
1000
1300
0010
1100
0010
1010
0001
1100
0010
0101
0001
1100
,
0010
0110
1000
0011
0100
0110
0100
1100
0100
1010
0100
1001
0100
1001
0010
1100
,
0100
0000
1001
0000
0100
0000
0110
0000
1000
0000
0011
0000
0010
0000
0100
1000
0001
0100
0010
0000
0100
1000
0001
0000
0100
0001
0100
0001
0010
0000
0100
1000
,
0100
1000
0001
0000
0100
0001
0100
0000
0100
1000
0001
0010
0100
0000
1000
0001
0100
0010
0100
0000
0100
0010
1000
0000
0001
0010
0100
1000
0001
0000
0100
1000
,
0001
0100
1000
0000
0100
0001
0100
0000
0010
0000
0000
0000
1000
0000
0001
0000
1000
0000
0000
0000
0100
0000
0001
0000
0100
0000
0010
0000
1000
0100
1000
0000
,
0001
0000
0000
0000
0100
0000
0010
0000
1000
0000
0001
0000
0100
0010
0100
0000
0001
0000
0000
0000
0010
0000
0100
0000
1000
0000
0001
0000
0100
0000
0010
0000
,
0100
0000
0000
0000
0001
0000
1000
0000
0001
1000
0001
0000
0001
1000
0001
0000
0100
0000
0000
0000
0010
0000
0100
0000
1000
0000
0000
0000
0001
0000
0100
0000
,
0010
0000
1000
0100
1000
0001
0100
0010
0100
0000
0010
0100
0010
1000
1001
1001
,
1001
0000
2002
0000
0003
0000
0100
0000
0000
0000
3200
0000
0010
0010
0010
0010
0010
0010
0010
0010
0010
0010
0010
0010
0010
0010
0010
0010
0010
0010
0010
0010
,
0010
0010
0010
0010
0010
0010
0010
0010
0010
0010
0010
0010
0010
0010
0010
0010
0010
0010
0010
0010
0010
0010
0010
0010
0010
0010
0010
0010
0010
0010
0010
0010
,
0010
0010
0010
0010
0010
0010
0010
0010
0010
0010
0010
0010
0301
0000
0000
0000
0010
0000
1000
0000
0101
0000
0000
0000
0010
0000
0100
0000
1001
0000
0000
0000
,
1000
0000
0100
0000
1010
0000
1100
0000
0100
0010
1000
0001
0100
0000
0000
0000
0010
0000
1000
0000
0101
0000
0000
0000
0100
0000
0001
0000
1010
0000
0000
0000
,
0100
0000
0000
0000
0000
0000
0000
0000
0000
0000
0000
0000
1000
0000
0000
0000
0000
0000
0000
0000
0000
0000
0000
0000
0110
0000
0000
0000
0000
0000
0000
0000
0000
0000
0000
0000
0011
0000
0000
0000
0000
0000
0000
0000
0000
0000
0000
0000
0100
0000
0000
0000
1000
0000
0000
0000
0001
0000
0000
0000
0100
0000
0000
0000
0010
0000
0000
0000
0100
0000
0000
0000
0010
0000
0000
0000
0000
0000
0000
0000
0000
0000
0000
0000
0000
0000
0000
0000
0000
0000
0000
0000
0000
0000
0000
0000
0010
0000
0000
0000
0000
0000
0100
0000
0000
0000
0000
0000
1000
0000
0000
0000
0000
0000
0001
0000
0000
0000
0000
0000
0100
0000
0000
0000
0000
0000
0010
0000
0000
0000
0000
0000
0100
0000
0000
0000
0000
0000
0000
0000
0000
0000
0000
0000
0001
0000
0000
0000
0000
0000
0000
0000
0000
0000
0000
0000
1000
0000
0000
0000
0000
0000
0100
0000
0000
0000
0000
0000
0001
0000
0000
0000
0000
0000
0000
0000
0000
0000
0000
0000
0000
0000
0000
0000
0000
0000
0000
0000
0000
0000
0000
0000
,
0010
0100
1000
0001
0100
0000
0010
0000
2100
0000
0000
0000
3010
0000
0001
0000
0010
0000
0100
0000
1000
0000
0100
0000
0010
0000
0001
0000
0010
0000
0100
0000
,
1000
0100
0010
0100
0010
0100
0001
0010
0100
1000
0100
1000
0100
0010
0100
0010
,
0100
0001
0100
0001
0010
0001
0010
0001
0010
0100
1000
0100
1000
0100
1000
0100
,
0010
0100
1000
0001
0100
0010
1000
0100
0001
0100
0010
0100
1000
0001
0010
0100
,
0011
0000
0110
0000
1100
0000
0110
1000
0001
0100
1000
0100
0010
1000
0100
1000
,
0001
0100
0010
1000
0100
0001
0100
0010
1000
0100
0010
1000
0100
1000
0010
0100
,
1000
0100
0001
0100
0010
1000
0100
0001
0100
1000
0100
0001
0010
1000
0100
1000
,
0010
0000
0100
0000
0001
0000
0010
0000
0100
0000
0010
0000
1000
0000
0001
0000
0100
0000
0010
0000
1000
0000
0100
0000
0001
0000
0010
0000
1100
0011
0202
0000
,
0303
0100
0100
1001
0010
1000
0100
0011
,
0100
0010
1000
1100
0001
0110
1100
0101
,
0100
0000
0000
0000
0010
0001
1000
0100
0010
0000
0000
0000
1001
0000
0000
0000
0100
0000
0000
0000
1000
0000
0000
0000
0001
0000
0000
0000
0011
0000
0000
0000
,
0100
1000
0001
1010
0100
0110
1001
0110
,
1100
0000
0000
0000
0110
0001
1000
0100
0010
0000
0000
0000
0011
0000
0000
0000
1000
0000
0000
0000
0100
0000
0000
0000
0001
0000
0000
0000
1100
0000
0000
0000
,
1000
0010
0001
0101
1000
1100
0110
0011
,
0001
0100
1000
1100
0001
0010
1000
0110
,
0100
0000
0000
0000
1100
0000
0110
0000
0011
0110
1100
0110
0011
0000
0000
0000
0100
0000
0000
0000
1001
0000
0000
0000
0100
0000
0000
0000
0011
0000
0000
0000
,
1100
0110
0101
1010
1000
0101
0001
1010
,
0101
1010
0101
1001
0100
0101
0010
0011
,
1100
0110
1001
0101
1000
0011
0001
1100
,
1100
0011
0011
1001
0100
0011
0100
1100
,
0110
1001
0101
0011
1000
1100
0001
1100
,
0101
0110
1100
0101
0100
1001
0010
1010
,
1010
0000
0000
0000
0101
0000
0000
0000
0101
0000
0000
0000
1001
0000
0000
0000
0100
0000
0000
0000
1001
0000
0000
0000
0100
0000
0000
0000
0101
1010
0110
0000
,
1001
0100
1001
0010
1001
0100
0110
0010
,
0110
0001
1100
1000
0101
0101
1010
0100
,
1100
0010
1010
0100
1010
1001
0101
1000
,
0011
0010
0110
1000
1100
0011
0110
1001
,
1001
0100
0011
0100
1100
0011
0101
0010
,
0101
0010
1010
0100
1010
1010
1001
1010
,
0101
0110
1100
0100
1010
1100
1001
0100
,
0101
0010
0101
0010
1010
1010
0101
1010
,
0101
0000
1000
0001
0100
0010
0100
0000
0010
1000
0001
0000
0100
0010
0100
0001
,
0010
0000
1000
0010
1000
0100
0001
0000
0100
0010
0100
0000
0001
1000
0001
1000
,
0100
0000
0010
0100
0010
0001
0100
0000
1000
0010
1000
0000
0100
1000
0001
0100
,
0010
0000
0010
1000
0001
0100
0010
0000
0100
0001
0100
0000
1010
0000
0101
0000
,
0101
0000
0010
1000
0100
1000
0001
0000
0100
1000
0001
0000
0100
0001
0100
0010
,
0100
0000
1000
0100
1000
0010
0100
0000
0001
0100
1000
0000
0100
1000
0001
0100
,
1000
0000
0100
1000
0001
0100
0010
0000
0100
1000
0001
0000
1000
0001
1000
0001
,
0010
0000
0100
0010
1000
0001
0100
0000
0010
1000
0001
1000
0100
1000
0001
0100
,
0110
0101
1000
0100
1000
0001
0100
0011
0000
1100
0100
0001
0100
0010
0100
0001
1100
0010
0100
0010
1000
0100
1000
0110
0000
0011
0100
1000
0100
1000
0100
0010
,
1100
0001
0100
0010
0100
1000
0100
1010
0000
0110
0001
0100
0001
0010
1000
0010
1010
0100
1000
0001
0100
0010
1000
0101
0000
0011
0100
0001
0100
0001
0010
1000
,
0101
1000
0100
1000
0001
0100
0010
1100
0000
0011
0100
0001
0100
0010
1000
0100
0011
0010
0100
1000
0100
0001
1000
0011
0000
1100
0010
0100
0010
0100
0010
0100
,
1100
0001
0100
0010
1000
0001
0100
0110
0000
1001
0100
1000
0001
0100
0010
0100
0110
0010
1000
0100
1000
0001
0100
1010
0000
0101
0001
0100
0010
1000
0100
0001
,
1010
1000
0100
0001
0010
1000
0100
0101
0000
1010
0001
1000
0001
1000
0010
1000
0101
1000
0001
0100
0010
1000
0100
0011
0000
1010
0100
0001
0100
0010
0100
0001
,
1100
0010
1000
0100
0010
0100
1000
0110
0000
1100
0001
0100
0010
1000
0100
1000
1010
0100
0010
1000
0001
0100
1000
0101
0000
0011
0100
0001
0020
0100
0000
0000
,
0100
0000
0000
0100
0000
0000
0200
0000
0000
0000
0000
0000
0000
0330
0000
0000
0000
0000
0000
0000
0000
0000
0000
0000
0000
0000
0000
0000
0000
0000
0000
0000
;

//---------------dance-single - ----------------
#NOTES:
     dance-single:
     :
     Hard:
     10:
     0.857,1.000,0.540,0.576,0.876,1374.000,152.000,162.000,0.000,0.000:

















0000
0000
0000
0000
,
0000
0000
0000
0000
,
0000
0000
0000
0000
,
0000
0000
0000
0000
0001
0000
1000
0001
0000
0000
0000
0000
0002
0200
0000
0000
,
0000
0000
0000
0000
0000
0000
0000
0000
0000
0303
0000
0000
0020
0200
0000
0000
,
0000
0000
0000
0000
0000
0000
0000
0000
0000
0000
0330
0000
0000
2002
0000
0000
,
0000
3000
0000
0000
0000
2000
0000
0000
0000
0000
3000
0000
0000
0200
0000
0000
,
0000
0000
0000
0000
0003
0020
0000
0000
0000
0000
0330
0000
0000
1000
0000
0100
,
1000
0100
1000
0000
0000
0010
0000
0100
0010
0100
0010
0100
0000
0100
0000
0001
,
0100
0001
0100
0000
0000
0010
0000
0100
0010
0100
0010
0100
0010
0100
0000
0001
,
0000
1000
0001
0000
0020
0000
0000
0100
0030
0010
0100
0000
0202
0000
0000
0000
,
0303
0000
0000
1000
0000
0011
0000
0000
1100
0000
0000
1010
0000
0100
0000
0010
,
0000
0001
0010
0000
2000
0000
0000
3100
0000
1000
0010
0000
2002
0000
0000
0000
,
3003
0000
0000
0000
0000
1000
0001
0000
0100
0000
0020
0000
0200
0000
0000
0330
,
0000
0000
0000
0010
0000
1100
0000
0000
0110
0000
0000
0011
0000
0220
0000
0000
,
0330
0000
0000
0010
0100
0010
0100
0000
1000
0000
0001
0000
1000
0000
0010
0100
,
0010
0000
1000
0001
1000
0000
0010
0001
0010
0100
1000
0100
1000
0000
0001
0010
,
0001
0000
0100
0010
0100
0000
1000
0010
1000
0100
0010
0100
0010
0000
1000
0001
,
1000
0000
0100
1000
0100
0000
0010
0001
0010
0001
0100
0001
0100
0000
0010
0100
,
1000
0000
1000
0100
0010
0000
0001
0010
0100
1000
0100
1000
0100
0000
0001
1000
,
0010
0000
0100
0010
0001
0000
0100
1000
0010
1000
0100
1000
0100
0000
0010
0001
,
0100
0000
0010
1000
0100
0000
0010
0100
0010
0100
0010
0100
0010
0000
0010
0001
,
0010
0000
0100
1000
0100
0000
0010
0001
0010
0100
1000
0100
0010
0000
1000
0010
,
1000
0000
0000
0000
0100
0000
0001
0000
0100
0000
0010
1000
0010
0000
0100
0001
0100
0000
0010
0000
0010
0000
0100
0000
0001
0000
0010
0000
0100
0000
0000
0000
,
0010
0000
1000
0000
0100
0000
1000
0001
0100
0000
1000
0000
0100
0000
0010
0000
,
0100
0000
0010
0000
0100
0000
0010
0000
0100
0000
0010
0000
0001
0010
0001
0000
,
0001
0000
0010
0000
0001
0000
0100
0010
0100
0000
0100
0000
0001
0000
0100
0000
,
1000
0000
0100
0000
0001
0000
0100
0000
1000
0000
0010
0000
1000
0100
0010
0000
,
1000
0000
0010
0000
1000
0000
0010
1000
0001
0000
0010
0000
0001
0000
0010
0000
,
0001
0000
0010
0000
1000
0000
0010
0000
0001
0000
0010
0000
1000
0100
0010
0000
,
0001
0000
0010
0000
1000
0000
0010
0100
0001
0000
1000
0000
0100
0000
0010
0000
,
0001
0000
1000
0000
0100
0000
0010
0000
0001
0000
1000
0000
1000
0001
1000
0000
,
0001
0000
0010
0000
0100
0000
1000
0010
1000
0000
0010
0000
0100
0000
1000
0000
,
0001
0000
0010
0000
0100
0000
1000
0000
0100
0000
0010
0000
0100
0001
0100
0000
,
0100
0000
0010
0000
1000
0000
0100
1000
0100
0000
0010
0000
0100
0000
0001
0000
,
0100
0000
1000
0000
0010
0000
1000
0000
0001
0000
0100
0000
0010
0001
0010
0000
,
1000
0000
0100
0000
0001
0000
0001
1000
0010
0000
1000
0000
0010
0000
0100
0000
,
0001
0000
0100
0000
0010
0000
0100
0000
1000
0000
0001
0000
1000
0001
1000
0000
,
0100
0000
0010
0000
0001
0000
0100
1000
0001
0000
0100
0000
0010
0000
0100
0000
,
1000
0000
0000
0000
0001
0000
0000
0000
1000
0001
1000
0001
2200
0000
0000
0000
0000
0000
3300
0000
0022
0000
0000
0000
0000
0000
0033
0000
2200
0000
0000
0000
,
0000
3300
0220
0000
0000
0330
0022
0000
0000
0033
2200
0000
0000
3300
0220
0000
,
0000
0330
0022
0000
0033
0000
2200
0000
3000
0300
0220
0000
0300
0030
0022
0000
,
0000
0033
2200
0000
0000
3300
0022
0000
0000
0033
0220
0000
0000
0330
0022
0000
,
0000
0033
2200
0000
0000
3300
0022
0000
0003
0030
2200
0000
3300
0000
0220
0000
,
0000
0330
0202
0000
0003
0300
0022
0000
0033
0000
2020
0000
0000
3030
2200
0000
,
0000
3300
2020
0000
0000
3030
2200
0000
0000
3300
0202
0000
0000
0303
0022
0000
,
0000
0033
0202
0000
0000
0303
0022
0000
0000
0033
0220
0000
0000
0330
2002
0000
,
0000
3003
0220
0000
0000
0330
2002
0000
0000
3003
2020
0000
0000
3030
0202
0000
,
0000
0303
0220
0000
0000
0330
1001
0000
2000
3000
0101
0000
0002
0003
1010
0000
,
0200
0300
1100
0000
0020
0030
0202
0000
0000
0303
0022
0000
0000
0033
2200
0000
,
0000
3300
0202
0000
0000
0303
0022
0000
0000
0033
0220
0000
0000
0330
1000
0001
,
1000
0001
0200
0000
0300
0000
1000
0000
0001
0000
0220
0000
0000
0330
0010
0000
,
0100
0000
0202
0000
0000
0303
0010
0000
0100
0000
0220
0000
0000
0330
0011
0000
,
0010
0000
1010
0000
0001
0000
1100
0000
0001
0000
0202
0000
0000
0303
0010
0000
,
0001
0000
0022
0000
0000
0033
0010
0000
1000
0000
2020
0000
0000
3030
1000
0000
,
0001
0000
1001
0000
0100
0000
0001
0010
0100
0000
1000
0000
0100
0000
1000
0000
,
1000
0010
1000
0000
0100
0000
1000
0000
0001
0000
0100
0000
0010
0000
0100
0000
,
0001
0000
0100
0000
0010
0000
0100
0001
0100
0000
0010
0000
0100
0000
0010
0000
,
0100
0001
1000
0000
0010
0000
0100
0000
0010
0000
0100
0000
0001
0000
0100
0000
,
1000
0000
0100
0000
0001
0000
0100
0010
1000
0000
0010
0000
0100
0000
0001
0000
,
0100
0010
0100
0000
0010
0000
0001
0000
0010
0000
0100
0000
1000
0000
0100
0000
,
1000
0000
0100
0000
0010
0000
1000
0001
1000
0000
0100
0000
0010
0000
1000
0000
,
0100
0001
0010
0000
0100
0000
0001
0000
0100
0000
0010
0000
0001
0000
1000
0000
,
0001
0000
1000
0000
0001
0000
1000
0001
1000
0100
1000
0000
0000
0000
0001
1000
,
0001
1000
0100
0000
0000
0000
0010
0100
0010
1000
0001
0000
0000
0000
0010
0001
,
0010
0100
1000
0000
0000
0000
1000
0010
1000
0010
0100
0000
0000
0000
1000
0010
,
1000
0010
0100
0000
0000
0000
0010
0100
0010
0100
0001
0000
0000
1000
0010
1000
,
0001
0100
0010
0100
0010
0100
0001
0100
0001
1000
0100
0000
0000
0000
1000
0100
,
0001
0100
1000
0000
0000
0000
1000
0010
0001
0010
1000
0000
0000
0000
1000
0100
,
1000
0010
0001
0000
0000
0000
0001
0010
0001
0100
1000
0000
0000
0000
0100
0010
,
0100
0010
0001
0000
0000
0000
0100
0001
0100
0001
1000
0000
0000
0000
0020
0000
,
2000
0000
3000
0000
0130
0000
0010
0000
1000
0000
0001
0000
0010
0000
0100
0000
0001
0000
0000
0000
1000
0001
1000
0000
0000
0000
0100
0000
0010
0000
0000
0000
,
1000
0000
0001
0000
0000
0000
0010
0000
0100
0000
1000
0000
0001
0000
0010
0000
0100
0000
0000
0000
0010
0001
0010
0000
0000
0000
0100
1000
0100
0000
0100
0000
,
0010
0000
0100
0000
0000
0000
0010
0000
1000
0000
0001
0000
0100
0000
0010
0000
0100
0000
0000
0000
0010
0001
0010
0000
0000
0000
1000
0000
0100
0000
0000
0000
,
0010
0001
0000
0100
0010
0100
0010
0100
0001
0100
0010
0100
0010
0100
0002
0000
,
0020
0000
0033
0000
0100
0000
0000
0000
0010
0000
0000
0000
1000
0000
0001
0000
1000
0000
0000
0000
0010
0100
0010
0000
0000
0000
1000
0000
0001
0000
0000
0000
,
0010
0000
0100
0000
0000
0000
1000
0001
1000
0000
0100
0000
0010
0000
0001
0000
0010
0000
0000
0000
0100
0001
0100
0000
0000
0000
1000
0000
0100
0000
1000
0000
,
0100
0010
0000
0100
0001
0100
0010
1000
0100
1000
0001
0100
0010
0100
1000
0100
,
1000
0000
0001
0000
0100
0000
0001
0000
0100
0000
0001
0000
0010
0000
0001
0000
0010
0000
0001
0000
0010
0000
0001
0000
0010
0000
0100
0000
0010
0100
0010
0000
,
1000
0001
1000
0000
0100
0010
0100
0000
1001
0000
0000
0000
0220
0000
0000
0000
0000
0000
0000
0000
0000
0000
0000
0000
0000
0000
0000
0000
0000
0000
0000
0000
,
0330
0000
2200
0000
0300
0000
0100
0000
0000
0100
0000
3000
0202
0000
0000
0300
,
0203
0000
0000
0000
1300
0000
0001
0000
0000
0000
0000
0000
1000
0100
0010
0000
1000
0000
0100
0000
1000
0000
0001
0010
0001
0000
0001
0000
1000
0000
0100
0000
,
1000
0000
0100
0000
1000
0000
0001
0000
1000
0000
0100
0000
1000
0001
1000
0000
1000
0000
0001
0000
1000
0000
0100
0001
1000
0000
0001
0000
1000
0000
0100
0000
,
1000
0100
1000
0100
0020
0000
0000
2030
0000
3002
0000
2003
0000
3002
0000
0203
,
0000
2300
0000
3200
0000
0320
0000
0230
0000
0302
0000
0203
0000
0320
0000
2030
,
0000
3002
0000
2003
0000
3010
0100
0010
0100
0001
0000
0001
0100
0010
0000
1000
,
0010
0100
1000
0100
1000
0100
1000
0001
0100
0010
0000
1000
0001
1000
0000
0100
,
0001
0100
0001
0100
0010
1000
0010
1010
0000
0011
0000
1010
0000
0011
0000
1010
,
0000
0011
0000
1010
0000
0011
0000
1100
0000
0101
0000
1100
0000
0101
0000
1100
,
0000
0101
0000
1100
0000
0101
0000
0110
0000
1001
0000
0110
0000
1001
0000
0110
,
0000
1001
0000
0110
0000
1001
0000
1010
0000
0101
0000
1100
0000
0011
0000
1010
,
0000
0101
0000
1100
0000
0011
1000
0001
1000
0000
0100
0010
0001
0000
0010
1000
,
0010
0000
0100
0001
1000
0100
0001
0100
0010
0000
0010
0001
0100
0000
0010
1000
,
0100
0000
0000
0000
1000
0000
0001
0000
0100
0010
0100
0000
1000
0000
0001
0000
0100
0000
0000
0000
1000
0000
0001
0000
1000
0000
0000
0000
0001
0000
1000
0000
,
0001
0000
0010
0100
0010
0100
0010
0100
0001
0000
1000
0100
1000
0010
0101
0101
,
0101
0101
0000
0000
0100
0000
0120
2000
3000
0200
0300
2000
3000
0002
0003
0200
,
0300
2000
3000
0200
0300
2000
3000
0200
0300
0002
0003
0200
0300
2000
3000
0002
,
0003
0000
0200
0000
0330
0000
0010
0000
0001
1000
0010
0000
1100
0000
0000
0000
0001
0000
0000
0000
0110
0000
0000
0000
1000
0000
0000
0000
1001
0000
0000
0000
,
0100
0011
1100
0011
1000
0011
0100
1001
,
0100
0000
0000
0000
0011
0000
0000
0000
1010
0000
0000
0000
0101
0000
0000
0000
1000
0010
1000
0000
0100
0001
0100
0000
0010
1000
0010
0000
0001
0010
0001
0000
,
0010
1000
0010
0000
0010
0100
0010
0000
0001
0000
0100
0000
1000
0000
0000
0000
0001
0000
0000
0000
1000
0000
0000
0000
0100
0000
0000
0000
1000
0000
0000
0000
,
0100
1000
0001
1000
0001
1000
0100
1000
,
0100
1000
0001
1000
0001
1000
0100
1000
,
0001
1000
0001
1000
0100
1000
0100
1010
,
0100
0101
0010
1010
1000
0001
0010
0100
,
1000
0001
0010
0100
1000
0100
0010
0001
,
0010
0100
1000
0100
0010
0001
0010
0100
,
1000
0000
0000
0000
0100
0000
0000
0000
0010
0000
0000
0000
1000
0000
0000
0000
0100
0000
0000
0000
0010
0000
0000
0000
0100
0000
0000
0000
0001
0100
0010
0000
,
0000
1000
0100
0011
0000
1000
0001
0110
,
0000
0001
0100
1010
0000
0100
0010
0101
,
0000
0001
1000
0110
0000
1000
0001
0011
,
0000
0010
0100
0110
0000
1000
0001
1001
,
0000
0100
0010
1010
0000
0100
1000
0101
,
0000
0010
0100
0101
0000
0010
0100
0011
,
0000
0010
0100
0011
0000
1000
0100
1001
,
1000
0000
0000
0000
0010
0000
0100
0000
0010
0100
0010
0100
0110
0000
0000
0000
0000
0000
0000
0000
0101
0000
0000
0000
0000
0000
0000
0000
1000
0000
0000
0000
,
0100
0010
0001
1100
0000
1010
0000
0100
,
0001
0100
0010
1001
0000
0101
0000
1000
,
0010
1000
0001
1100
0000
0110
0000
0100
,
0001
0100
0001
0110
0000
1010
0000
0010
,
0100
0010
0100
1010
0000
0101
0000
0100
,
1000
0001
0100
0011
0000
1001
0000
0010
,
1000
0000
0000
0000
0001
0000
0000
0000
0100
0000
0000
0000
1001
0000
0000
0000
0000
0000
0000
0000
0101
0000
0000
0000
0000
0000
0000
0000
0010
0001
0010
0000
,
1000
0100
0010
0001
0100
1000
0001
0100
,
0010
1000
0100
0010
0100
0010
1000
0100
,
1000
0100
0001
0010
0100
0001
1000
0100
,
0001
0100
1000
0010
0100
0010
1000
0010
,
0001
0010
1000
0010
0100
0010
0100
1000
,
0010
0100
0010
0001
0100
0010
0100
1000
,
0001
1000
0001
1000
0010
1000
0010
1000
,
0001
1000
0001
0010
1000
0001
1000
0100
,
1000
0100
0010
0000
1000
0000
0001
0000
0100
1000
0001
0000
0100
0000
0010
0000
,
0100
0000
0001
0000
0010
0000
0001
0000
0100
0010
0100
0000
1000
0001
1000
0000
,
0010
0100
1000
0000
0010
0000
1000
0000
0001
0000
0100
1000
0001
0000
0100
0000
,
0001
0000
0010
0000
0100
0000
0010
0000
0100
0010
0100
0010
0100
0000
0000
0000
,
1000
0010
0100
0000
1000
0000
0100
0000
1000
0000
0100
0010
1000
0000
0001
0000
,
1000
0000
0001
0000
1000
0000
0001
0000
0010
0001
0010
0000
0100
1000
0100
0000
,
0100
0010
0001
0000
0100
0000
0010
0000
0100
0000
0001
0010
0100
0000
0010
0000
,
1000
0100
1000
0010
0100
0001
1000
0001
,
0100
1000
0100
0010
0100
0001
0100
0000
0100
0010
1000
0001
0100
0010
0100
0000
0010
0001
0010
0001
0010
0001
0100
0000
0010
1000
0010
1000
0010
1000
0100
0000
,
0100
0010
0100
0010
0100
0010
0001
0000
1000
0010
1000
0010
1000
0010
0100
0000
0001
0100
0001
0100
0001
0100
0010
0000
0001
0010
0100
1000
0100
0010
0001
0000
,
1000
0100
0010
0001
0010
0100
1000
0000
0010
0001
0010
0100
1000
0100
0010
0000
1000
0100
1000
0100
1000
0010
0001
0000
0100
0010
0100
1000
0001
0100
0001
0000
,
0100
0010
1000
0100
1000
0001
0100
0000
0010
0100
1000
0001
0100
0010
1000
0000
0001
0010
0100
1000
0100
0010
0001
0000
0100
0010
0100
0001
0100
0010
0100
0000
,
1000
0100
1000
0001
0100
0010
0100
0001
0000
0010
0100
0010
1000
0100
1000
0100
1000
0100
0010
0100
0010
0100
0010
0100
0000
0001
0100
0001
0100
0001
0100
0001
,
0100
0010
0100
0010
1000
0010
1000
0010
0000
1000
0100
1000
0100
1000
0100
1000
0100
1000
0100
1000
0100
1000
0100
1000
0000
0001
0010
0100
1000
0110
0000
0000
;

//---------------dance-single - ----------------
#NOTES:
     dance-single:
     :
     Medium:
     8:
     0.550,0.876,0.256,0.103,0.558,982.000,72.000,29.000,0.000,0.000:











0000
0000
0000
0000
,
0000
0000
0000
0000
,
0000
0000
0000
0000
,
0000
0000
0000
0000
0000
0000
0000
0000
0000
0000
0000
0000
0000
1001
0000
0000
,
0000
0000
0000
0000
0000
0000
0000
0000
0000
0000
0000
0000
0000
0110
0000
0000
,
0000
0000
0000
0000
0000
0000
0000
0000
0000
0000
0000
0000
0000
1010
0000
0000
,
0000
0000
0000
0000
0000
0000
0000
0000
0000
0000
0000
0000
0000
0011
0000
0000
,
0000
0000
0000
0000
0000
0000
0000
0000
0000
0000
0000
0000
0000
1001
0000
1000
,
0000
0010
0100
0000
0010
0100
0000
1000
0000
0100
1000
0100
0000
0010
0000
0001
,
0000
0001
0010
0000
0010
0001
0000
0001
0000
0010
0100
0010
0100
0010
0000
0010
,
0000
1000
0001
0000
0001
0000
0000
0001
0000
0010
0020
0000
2000
0000
0000
3030
,
0000
0000
0000
0100
0000
0100
0000
0000
0010
0000
0000
1000
0000
0001
0000
0001
,
0000
0001
1000
0000
1000
0000
0000
1000
0000
1000
0020
0000
0002
0000
0000
0000
,
0033
0000
0000
0000
0000
0100
0100
0000
0100
0000
0100
0000
0200
0000
0000
0000
,
0000
0300
0000
0010
0000
0010
0000
0000
0010
0000
0000
0010
0000
0020
0000
0000
,
0000
0000
0030
1000
0000
0001
0001
0000
1000
0000
0001
0000
0001
1000
0100
0010
,
0000
0001
0010
0100
0000
1000
0100
0010
0000
1001
0000
1100
0000
0010
0100
0010
,
0000
1000
0010
1000
0000
0010
0001
0010
0000
1010
0000
1010
0000
1000
0000
0001
,
0010
0000
0100
1000
0100
1000
0000
0010
0001
0000
0010
0001
0010
0001
0000
0100
,
0010
0000
0010
0100
0010
0100
0000
1000
0010
0000
0100
0001
0000
2002
0000
0000
,
3003
0000
0000
0100
0000
0100
0100
0000
0000
0001
0010
0001
0000
0220
0000
0000
,
0330
0000
0000
0010
0100
0000
0000
0000
0000
1000
0001
1000
0000
0220
0000
0000
,
0330
0000
0000
0001
0000
0001
1000
0000
0000
0100
0010
0100
0000
0202
0000
0000
,
0303
0000
0000
1000
0000
0100
0001
0100
0001
0100
0001
0010
1000
0000
0000
0000
,
0010
0100
0000
1000
0100
1000
0100
0000
,
1000
0010
0000
0100
0001
0100
0001
0000
,
0010
0100
0000
1000
0010
1000
0010
0000
,
0100
0010
0000
1000
0001
0000
1000
0000
,
0010
0100
0000
1000
0001
1000
0001
0000
,
0010
0001
0000
0001
1000
0001
0100
0000
,
0010
0100
0000
1000
0001
1000
0001
0000
,
0100
0010
0000
1000
0001
0000
1000
0000
,
0010
0100
0000
0010
0001
0010
0001
0000
,
1000
0001
0000
0001
1000
0001
1000
0000
,
0100
0001
0000
0010
1000
0010
1000
0000
,
0100
1000
0000
0100
1000
0000
0100
0000
,
0010
0001
0000
0010
0001
0010
0001
0000
,
1000
0010
0000
0010
1000
0010
1000
0000
,
0100
1000
0000
0100
1000
0100
1000
0000
,
0100
0000
0001
0000
0100
0110
0100
0000
0000
0000
1001
0000
0000
0000
0100
0000
,
0000
1010
0000
0100
0000
0101
0000
0100
,
0010
0100
0000
0010
0000
1100
0000
0001
,
0000
1010
0000
0010
0000
0110
0000
1000
,
0001
1000
0000
1000
0000
0101
0000
0100
,
0000
1010
0000
0100
0000
1001
0000
0010
,
0001
0010
0000
0100
0000
1010
0000
0100
,
0000
1001
0000
0100
0000
0101
0000
0010
,
1000
0010
0000
0010
0000
0101
0000
1000
,
0000
1100
0000
1000
0001
1000
0001
1000
,
0001
1000
0001
1000
0000
0100
0000
1010
,
0000
0100
0000
1001
0000
0001
0000
0100
,
0010
0100
0000
1000
0001
1000
0000
0010
,
0100
0010
0000
0010
0001
0010
0000
0010
,
1000
0010
0000
0100
1000
0100
0000
0001
,
0100
0001
0000
0010
0100
0010
0000
0100
,
0010
0100
0000
1000
0000
0010
0100
0000
,
0010
0001
0010
0001
0000
1000
0001
0000
,
0001
1000
0001
1000
0000
0010
1000
0000
,
1000
0010
1000
0010
0000
0100
0001
0000
,
0001
0100
0000
0010
0000
1000
0010
0000
,
0100
0010
0100
0001
0000
1000
0100
0000
,
1000
0100
1000
0010
0000
0100
0010
0000
,
1000
0010
0100
0001
0000
0100
0010
0000
,
1000
0010
0000
1000
0001
1000
0000
0010
,
0100
0010
0000
1000
0010
0001
0000
0001
,
0010
1000
0000
0100
0010
0001
0000
0001
,
0010
0100
0000
1000
0100
0010
0000
0010
,
0100
1000
0000
1000
0100
0010
0001
0010
,
0100
1000
0100
0010
0001
0010
0100
1000
,
0001
1000
0001
1000
0010
1000
0010
1000
,
0100
1000
0100
1000
0001
0100
0001
1000
,
0001
0000
0100
0010
0100
0010
0100
0010
0100
0000
1000
0010
0000
0100
0001
0000
,
0001
0100
0000
0010
1000
0000
1000
0001
1000
0001
1000
0001
0000
0001
0010
0000
,
0010
0100
0000
0100
1000
0000
1000
0100
1000
0100
1000
0100
0000
0010
0100
0000
,
0001
0100
0000
0010
0100
0000
1000
0010
1000
0010
0100
0001
0100
0001
0010
0001
,
0010
0001
1000
0010
1000
0000
0100
0010
0100
0000
0010
1000
0000
0100
0001
0000
,
1000
0001
0000
0100
0001
0100
0001
0100
0001
0000
0100
1000
0000
1000
0001
0000
,
0100
0010
0000
0100
0010
0100
0010
0100
0000
0010
0100
1000
0000
0010
0001
0000
,
0100
1000
0000
1000
0010
1000
0010
1000
0010
1000
0010
1000
0001
1000
0001
1000
,
0100
0001
0100
1000
0100
0000
2002
0000
0000
0000
0000
0000
0000
0000
0000
0000
,
0000
0000
0000
0000
3003
0000
1001
0000
0000
1001
0000
0000
2002
0000
0000
0000
,
0000
0000
0000
0000
3003
0000
1000
0000
0100
0100
0000
0100
0010
0100
0010
0000
,
0001
0001
0000
1000
0010
1000
0010
0000
0100
0100
0000
0010
0100
0010
0100
0000
,
0001
0001
0000
1000
1000
0000
0000
1000
0000
0100
0000
1000
0000
0100
0000
0010
,
0000
0100
0000
0010
0000
0001
0000
0010
0000
1000
0000
0010
0000
0100
0000
0001
,
0000
0010
0000
0100
0000
1000
0000
0010
0100
0010
0000
1000
0010
1000
0000
0100
,
0001
0100
0000
1010
0000
1010
0000
0010
0100
0010
0000
0010
0001
0010
0000
0100
,
0001
0100
0000
0101
0000
0101
0000
1000
0000
0100
0000
0010
0000
1000
0000
0100
,
0000
0010
0000
0001
0000
0010
0000
0100
0000
0001
0000
0010
0000
0100
0000
1000
,
0000
0001
0000
1000
0000
0010
0000
0100
0000
0010
0000
0001
0000
1000
0000
0100
,
0000
0001
0000
0100
0000
1000
0000
0010
0000
1000
0000
0010
0000
0100
0000
0010
,
0000
0100
0000
1001
0000
0010
0000
0010
0000
0010
0000
0110
0000
0010
0000
0010
,
0000
0010
0000
1010
0000
0010
0000
0010
0000
0010
0000
0101
0000
0001
0000
0001
,
0000
0001
0000
1010
0000
1000
0000
1000
0000
1000
0000
1100
0000
1000
0000
1000
,
0000
1000
0000
0110
0000
0010
0000
0010
0000
0010
0000
1001
0000
1001
1000
0100
,
0010
0001
0000
0000
0000
0000
2020
0000
0000
0000
0000
0000
0000
0000
0000
0000
,
0000
0000
0000
0000
,
0000
0000
3030
1001
0000
1001
0000
1001
,
0000
0000
0010
1000
0000
0000
0011
0000
0000
0000
0011
0000
0000
0000
0011
0000
,
0000
0000
0100
0010
0000
0000
1000
0100
0010
0001
0010
0100
1000
0100
0010
1000
,
0001
1000
0001
1000
0001
0000
0020
0000
0000
0000
1000
0000
0000
0000
1000
0000
,
0000
0100
0000
0100
0000
0001
0000
0001
,
0000
0100
0000
0100
0000
1000
0000
0100
,
0000
0000
0000
0001
0000
0000
0000
0000
0000
0100
0000
0000
0000
0000
0000
0100
0000
0000
0000
0000
0030
1000
0000
0000
,
0001
1000
0001
2000
0000
0100
0000
0010
,
0000
0100
0000
0001
0000
0100
0000
0010
,
0000
0010
0000
0100
0000
0001
0000
0100
,
0000
0000
0000
0000
0000
0000
0000
0000
0000
0000
0000
0000
0000
0000
0000
0000
0000
0000
0000
0000
0000
0000
0000
0000
0010
0000
0000
0000
0000
0000
0000
0000
0000
0000
0000
0000
0000
0000
0000
0000
0000
0000
0000
0000
0000
0000
0000
0000
0000
0000
0000
0000
0000
0000
0000
0000
0000
0000
0000
0000
0000
0000
0000
0000
0000
0000
0000
0000
0000
0000
0000
0000
0100
0000
0000
0000
0000
0000
0000
0000
0000
0000
0000
0000
0000
0000
0000
0000
0000
0000
0000
0000
0000
0000
0000
0000
0000
0000
0000
0000
0000
0000
0000
0000
0000
0000
0000
0000
0000
0000
0000
0000
0000
0000
0000
0000
0000
0000
0000
0000
0001
0000
0000
0000
0000
0000
0000
0000
0000
0000
0000
0000
0000
0000
0000
0000
0000
0000
0000
0000
0000
0000
0000
0000
0000
0000
0000
0000
0000
0000
0000
0000
0000
0000
0000
0000
0000
0000
0000
0000
3000
0000
0000
0000
0000
0000
0000
0000
0001
0000
0000
0000
0000
0000
1000
0000
0000
0000
0000
0000
0001
0000
0000
0000
0000
0000
0000
0000
0000
0000
0000
0000
,
0000
1000
0000
0110
0000
0001
0000
0110
,
0000
1000
0000
0110
0000
0001
0010
0001
,
0000
1000
0000
0110
0000
0001
0000
0110
,
0000
1000
0000
0110
0000
1000
0010
1000
,
0000
0110
0000
0001
0000
0110
0000
1000
,
0000
0110
0000
0001
0000
1000
0010
1000
,
0000
0001
0000
0110
0000
1000
0000
0110
,
0000
0000
0000
0000
1000
0000
0001
0000
0100
0000
0010
0100
0010
0000
0000
0000
0000
0000
0000
0000
2000
0000
0000
0000
0000
0000
0000
0000
3001
0000
0000
0000
,
0000
0010
0100
0010
0000
2000
0000
3001
,
0000
0100
0001
0100
0000
0020
0000
0130
,
0000
0010
1000
0010
0000
0200
0000
1300
,
0000
0001
1000
0001
0000
0200
0000
0310
,
0000
0100
0001
0100
0000
0020
0000
0130
,
0000
1000
0010
1000
0000
2000
0000
3100
,
0000
0000
0001
0000
1000
0000
0001
0000
0000
0000
1010
0000
0000
0000
1000
0001
,
1000
0000
0101
0000
1000
0010
1000
0000
,
0100
0000
0011
0000
0100
0010
0100
0000
,
1000
0000
1001
0000
0100
0001
0100
0000
,
1000
0000
1010
0000
1000
0001
1000
0000
,
0100
0000
0110
0000
0100
0001
0100
0000
,
0001
0000
1100
0000
0010
0001
0010
0000
,
1000
0001
1000
0000
0010
0100
0010
0000
,
1000
0010
1000
0000
0001
0100
0001
0000
,
1000
0100
0010
0001
0010
0100
1000
0100
,
0010
0001
0010
0100
1000
0100
0010
0001
,
0010
0100
1000
0100
0010
0001
0010
0100
,
1000
0100
0010
0001
0010
0100
1000
0000
,
0010
0001
0010
0001
0010
0001
0010
0001
,
1000
0010
1000
0010
1000
0010
1000
0010
,
0100
0010
0100
0010
0100
0010
0100
0010
,
1000
0001
1000
0001
1000
0001
1000
0001
,
1000
0001
1000
0000
0100
0010
0100
0000
0010
0001
0010
0000
1000
0010
1000
0001
,
0100
0010
0100
0000
0010
0001
0010
0000
1000
0010
1000
0000
0100
1000
0001
0100
,
0010
0100
1000
0000
0001
0010
0100
0000
0100
0010
0001
0000
0001
0010
0100
0100
,
0010
0001
0010
0000
1000
0010
1000
0000
1000
0001
1000
0000
0001
1000
0001
1000
,
0100
0000
1000
0000
0001
0010
0001
0010
0000
0000
0100
0000
1000
0010
1000
0000
0001
0000
0010
0000
0010
1000
0010
1000
0000
0000
0001
0000
1000
0001
1000
0000
,
0001
0000
0010
0000
0100
0010
0100
0010
0000
1000
0100
0010
0001
0010
0001
0010
0000
0100
0010
0100
0010
0100
0010
0100
0000
1000
0001
1000
0001
1000
0000
0000
;

//---------------dance-single - ----------------
#NOTES:
     dance-single:
     :
     Easy:
     6:
     0.349,0.670,0.245,0.028,0.167,610.000,69.000,8.000,0.000,0.000:

0000
0000
0000
0000
,
0000
0000
0000
0000
,
0000
0000
0000
0000
,
0000
0000
0000
0000
0000
0000
0000
0000
0000
0000
0000
0000
0000
2000
0000
0000
,
0000
0000
0000
0000
0000
0000
0000
0000
0000
0000
3000
0000
0000
0020
0000
0000
,
0000
0000
0000
0000
0000
0000
0000
0000
0000
0000
0000
0030
0000
0200
0000
0000
,
0000
0000
0000
0000
0000
0000
0000
0000
0000
0000
0000
0300
0000
0002
0000
0000
,
0000
0000
0000
0000
0000
0000
0000
0000
0000
0000
0003
0000
0000
1000
0000
0000
,
0000
0001
0000
0000
0000
1000
0000
0000
0000
0001
0000
0000
0000
1000
0000
0000
,
0000
0001
0000
0000
0000
1000
0000
0000
0000
0001
0000
0000
0000
1000
0000
0000
,
0000
0010
0000
0000
0000
0100
0000
0000
0000
0010
0000
0000
0000
1000
0000
0000
,
0000
0000
0000
0000
0000
0010
0000
0000
0000
0100
0000
0000
0000
0010
0000
0000
,
0000
1000
0000
0000
0000
1000
0000
0000
0000
0001
0000
0000
0000
0001
0000
0000
,
0000
0100
0000
0000
0000
0000
0000
0000
0000
0010
0000
0000
0000
0100
0000
0000
,
0000
0010
0000
0000
0000
0000
0000
0000
0000
1000
0000
0000
0000
0010
0000
0000
,
0000
1000
0000
0000
0000
0000
0000
0001
0000
0000
0000
0100
0000
0002
0000
0000
,
0000
0000
0000
0000
0000
0000
0000
0000
0000
0000
0003
0000
0100
0100
0000
0000
,
0000
0000
0000
0000
0000
0000
0000
0000
0000
0000
0000
0000
0001
0001
0000
0000
,
0000
1000
0001
0000
0000
0001
1000
0000
0000
0000
1000
0000
0000
0001
1000
0000
,
0000
0001
1000
0000
0000
0000
0100
0000
0000
0010
0100
0000
0000
0010
0000
1000
,
0000
0001
0000
1000
0000
0001
0000
0100
0000
0001
0000
0100
0000
0010
0000
0100
,
0000
1000
0000
0010
0000
1000
0000
0010
0000
1000
0000
0010
0000
0010
0000
0010
,
0000
0010
0000
0010
0000
0100
0000
0100
0000
0100
0000
0100
0000
0100
0000
0001
,
0000
1000
0000
0001
0000
1000
0000
0001
0000
1000
0000
0100
1000
0000
0000
0000
,
0000
1010
0000
1000
,
0000
0001
1000
0001
,
0000
0011
0000
0100
,
0000
1000
0010
1000
,
0000
1100
0000
0010
,
0000
1000
0000
0001
,
1000
0101
0000
0001
,
0000
0010
0000
0010
,
1000
1001
0000
1000
,
0000
0100
0000
1000
,
0100
1001
0000
0100
,
0000
0010
0000
0010
,
0001
0110
0000
0100
,
0000
1000
0000
0001
,
1000
0101
0000
1000
,
0000
0000
0002
1003
0000
0100
0000
1000
,
0000
0000
0000
0001
0000
0100
0000
0001
,
0000
0000
0000
1000
0000
0010
0000
1000
,
0000
0000
0000
0100
0000
0010
0000
0100
,
0000
0000
0000
0010
0000
0001
0000
0010
,
0000
0000
0000
1000
0000
0010
0000
1000
,
0000
0000
0000
1000
0000
0001
0000
1000
,
0000
0000
0000
0010
0000
0100
0000
0010
,
0000
0000
0000
0001
0000
0001
0000
0001
,
0000
0000
0000
1000
0000
1000
0000
1000
,
0000
0000
0000
0010
0000
0010
0000
0010
,
0000
0000
0000
1000
0000
0100
0000
1000
,
0000
0100
0000
0010
0000
1000
0000
0100
,
0000
1000
0000
0001
0000
1000
0000
0001
,
0000
1000
0000
0001
0000
0100
0000
0001
,
0000
0100
0000
0010
0000
0100
0000
1000
,
0000
0001
0000
1000
0000
0001
1000
0000
,
1000
0001
0000
0001
0000
0100
0010
0000
,
0010
0100
0000
0100
0000
1000
0100
0000
,
1000
0100
0000
1000
0000
0001
0010
0000
,
0100
1000
0000
0100
0000
0010
0100
0000
,
1000
0001
0000
0001
0000
1000
0001
0000
,
0001
1000
0000
0010
0000
0100
0010
0000
,
0010
0100
0000
1000
0000
0100
1000
0000
,
0100
1000
0000
0001
0000
1000
0000
0010
,
0000
0100
0000
1000
0000
0001
0000
0100
,
0000
0001
0000
0100
0000
0010
0000
1000
,
0000
0100
0000
1000
0000
0001
0000
0100
,
0000
0010
0000
0100
0000
1000
0000
0001
,
0000
0100
0000
0010
0000
0100
0000
1000
,
0000
0010
0000
1000
0000
0010
0000
0100
,
0000
0001
0000
0100
0000
0001
0000
0010
,
0000
0001
0000
0010
0000
0001
0000
1000
,
0000
0100
0000
0100
0000
0001
0000
0001
,
0000
1000
0000
1000
0000
0010
0000
0010
,
0000
0100
0000
0100
0000
1000
0000
1000
,
0000
0001
0000
0001
0000
1000
0000
0001
,
0000
1000
0000
0001
0000
1000
0000
0001
,
0000
1000
0000
0001
0000
1000
0000
0010
,
0000
1000
0000
0100
0000
1000
0000
0010
,
0000
0100
0000
0010
0000
1000
0000
0001
,
0000
0000
1000
0000
0000
0000
0100
0000
0000
0010
0000
0000
0100
0000
0000
0000
,
0100
0000
0000
0000
0000
0000
1000
0000
0001
1000
0000
0010
0100
0000
1000
0000
,
0010
0100
0000
0001
0100
0000
0010
0000
0001
0010
0000
0001
0010
0000
1000
0000
,
0100
1000
0000
0010
1000
0000
0100
0000
0000
0000
1100
0000
0000
0000
0011
0000
,
0000
1100
0000
0011
0000
1100
0000
0010
,
0000
1000
0000
0000
0001
0000
0100
0000
1000
0000
0010
0000
0000
0000
0001
0000
,
0010
0100
0000
1000
0100
0010
0000
0001
,
0010
0100
0000
1000
0001
1000
0000
0010
,
1000
0010
0000
0100
0001
0100
0000
0001
,
0100
0001
0000
0010
0100
0010
0000
1000
,
0010
1000
0000
1000
0001
1000
0000
0100
,
0001
0100
0000
1010
0000
0101
0000
0110
,
0000
1010
0000
1100
0000
0101
0000
0110
,
0000
1010
0000
1100
0000
0101
0000
0110
,
0000
1010
0000
0110
0000
1001
0000
0101
,
0000
0110
0000
2002
0000
0000
0000
0000
,
0000
0000
0000
0000
,
0000
0000
0000
0000
0000
3003
0100
0000
0000
0000
0010
0000
0000
0000
1000
0000
,
0000
0001
0000
1000
0000
0100
0000
1000
,
0000
0010
0000
0100
0010
1000
0001
0100
,
0010
0100
0010
1000
0000
0001
0000
1000
,
0000
0100
0000
1000
0000
0010
0000
0100
,
0000
0001
0000
0100
0000
0010
0000
1000
,
0000
0010
0000
0001
0000
1000
0000
1000
,
0001
1000
0001
1000
0000
1000
0000
1000
,
0000
0001
0000
0001
0000
0010
0000
0010
,
0000
0100
0000
0100
0000
1000
0000
1000
,
0000
0000
0001
0000
0000
0000
0001
0000
0000
0000
1000
0000
0000
0000
1000
0001
,
0000
1000
0000
0101
0000
0100
0000
0110
,
0000
1000
0000
0110
0000
0001
0000
0110
,
0000
0010
0000
1010
0000
0100
0000
0101
,
0000
0010
0000
0110
0000
1000
0000
1001
,
0000
0100
0000
0101
0000
0010
0000
0110
,
0000
1000
0000
1100
0000
0010
0000
0110
,
0000
0001
0000
0110
0000
1000
0000
1001
,
0000
0001
1000
0100
0000
0100
0000
0010
,
0000
0010
0000
1000
0000
1000
0000
0001
,
0000
0001
0000
0010
0000
0010
0000
0100
,
0000
0100
0000
1000
0000
1000
0000
0001
,
0000
0001
0000
1000
0000
1000
0000
0001
,
0000
0001
0000
0010
0000
0010
0000
0100
,
0000
0100
0000
0010
0000
0010
0000
1000
,
0000
0000
1000
0000
0000
0000
0001
0000
0000
0000
0001
0000
0000
0000
1000
0001
,
1000
0100
0010
0100
0000
1000
0010
1000
,
0000
0001
0100
0001
0000
0010
0100
0010
,
0000
1000
0010
1000
0000
0001
0100
0001
,
0000
0010
0001
0010
0000
0100
0001
0100
,
0000
0010
1000
0010
0000
1000
0100
1000
,
0000
0001
1000
0001
0000
0010
0100
0010
,
0000
1000
0010
1000
0000
0100
1000
0100
,
0000
0001
0100
0001
0000
0010
0001
0010
,
0100
0000
0010
0100
0000
0100
0010
0000
,
1000
0000
0001
1000
0000
1000
0001
0000
,
0001
0000
0010
0001
0000
0001
0010
0000
,
0100
0000
1000
0100
0000
0100
1000
0000
,
0010
0000
0100
0010
0000
0001
0010
0000
,
1000
0000
0100
1000
0000
1000
0100
0000
,
0010
0000
0100
0010
0000
0100
1000
0000
,
1000
0000
0001
1000
0000
1000
0001
0000
,
1001
0000
0000
0000
1001
1001
0000
0000
1001
0000
0000
0000
1001
1001
0000
0000
,
1001
0000
0000
0000
1001
1001
0000
0000
1001
0000
0000
0000
1001
1001
0000
0000
,
1001
0000
0000
0000
1001
1001
0000
0000
1001
0000
0000
0000
1001
1001
0000
0000
,
1001
0000
0000
0000
1001
1001
0000
0000
1001
0000
0000
0000
1001
1001
0000
0000
,
1001
1000
0100
1000
0100
0010
0100
0010
,
0100
0000
0000
0000
0001
0000
0000
0000
0100
0000
0000
0000
0010
0000
0000
0000
0001
0000
0000
0000
0010
0000
0000
0000
0100
0000
0000
0000
0001
0100
0000
0000
;
